<?xml version="1.0" standalone="no"?>
<!DOCTYPE svg PUBLIC "-//W3C//DTD SVG 1.1//EN" "http://www.w3.org/Graphics/SVG/1.1/DTD/svg11.dtd" >
<svg>
<metadata>
Created by FontForge 20120731 at Thu Mar 28 15:04:30 2013
 By Mike
Copyright (c) 2011, Admix Designs (http://www.admixdesigns.com/) with Reserved Font Name Questrial.
</metadata>
<defs>
<font id="Questrial-Regular" horiz-adv-x="550" >
  <font-face 
    font-family="Questrial"
    font-weight="400"
    font-stretch="normal"
    units-per-em="1000"
    panose-1="2 0 0 0 0 0 0 0 0 0"
    ascent="800"
    descent="-200"
    x-height="500"
    cap-height="662"
    bbox="-73 -210 1152 820"
    underline-thickness="50"
    underline-position="-50"
    unicode-range="U+0020-FB04"
  />
<missing-glyph horiz-adv-x="524" 
d="M33 662h460v-662h-460v662zM235 331l-157 227v-454zM91 617l172 -247l171 247h-343zM263 292l-172 -247h343zM290 331l158 -227v454z" />
    <glyph glyph-name=".notdef" horiz-adv-x="524" 
d="M33 662h460v-662h-460v662zM235 331l-157 227v-454zM91 617l172 -247l171 247h-343zM263 292l-172 -247h343zM290 331l158 -227v454z" />
    <glyph glyph-name=".null" horiz-adv-x="0" 
 />
    <glyph glyph-name="nonmarkingreturn" horiz-adv-x="333" 
 />
    <glyph glyph-name="space" unicode=" " horiz-adv-x="213" 
 />
    <glyph glyph-name="space" unicode="&#xa0;" horiz-adv-x="213" 
 />
    <glyph glyph-name="exclam" unicode="!" horiz-adv-x="221" 
d="M159 102v-102h-97v102h97zM83 183l-19 479h93l-19 -479h-55z" />
    <glyph glyph-name="quotedbl" unicode="&#x22;" horiz-adv-x="317" 
d="M117 443h-51l-19 219h89zM251 443h-51l-19 219h89z" />
    <glyph glyph-name="numbersign" unicode="#" horiz-adv-x="581" 
d="M186 442l21 143h65l-21 -143h116l21 143h65l-21 -143h104v-65h-113l-20 -144h103v-65h-112l-20 -143h-65l20 143h-116l-20 -143h-65l20 143h-103v65h112l20 144h-102v65h111zM222 233h116l20 144h-116z" />
    <glyph glyph-name="dollar" unicode="$" horiz-adv-x="636" 
d="M523 42.5q-68 -48.5 -188 -50.5v-99h-37v100q-184 9 -236 127q-16 36 -19 78h78q2 -60 53 -96q45 -32 124 -38v243q-110 25 -152 51t-62.5 55.5t-20.5 73.5q0 79 58.5 129.5t176.5 53.5v76h37v-77q115 -6 177 -61q58 -52 62 -127h-77q-6 47 -44.5 80t-117.5 38v-228
q46 -11 91.5 -24t81.5 -34q83 -47 83 -134.5t-68 -136zM136 484q0 -19 13 -36t35 -29q38 -20 114 -39v220q-92 -4 -132 -42q-30 -27 -30 -74zM335 63q84 0 132.5 29t48.5 88q0 67 -112 100q-33 9 -69 18v-235z" />
    <glyph glyph-name="percent" unicode="%" horiz-adv-x="845" 
d="M342 470q0 -86 -40.5 -134t-110 -48t-109.5 48t-40 141.5t40 141.5t113 47t110 -55.5t37 -140.5zM192 345q67 3 84 86q4 23 4 46q0 66 -23.5 99t-65 33t-65 -33t-23.5 -99t23.5 -99t65.5 -33zM803 174q0 -86 -40.5 -134t-110 -48t-109.5 48t-40 141.5t40 141.5t113 47
t110 -55.5t37 -140.5zM653 49q67 3 83 86q5 23 5 46q0 66 -23.5 99t-65 33t-65 -33t-23.5 -99t23.5 -99t65.5 -33zM683 670l-459 -682h-63l459 682h63z" />
    <glyph glyph-name="ampersand" unicode="&#x26;" horiz-adv-x="580" 
d="M184 656q41 14 93.5 14t89.5 -12t63 -32q47 -36 59 -94h-79q-8 24 -41 47t-81 23t-75 -9t-45 -25q-34 -30 -34 -80q0 -54 39 -84q35 -26 91 -26h161v44h70v-44h65v-67h-65v-127q0 -86 -60 -138q-61 -54 -166 -54q-95 0 -163 55q-69 56 -69 143q0 54 32 96t90 64
q-37 11 -67 50q-33 44 -33 86t14 75t42 57t69 38zM255 311q-61 0 -103 -37q-40 -34 -40 -86t44 -90q44 -39 113 -39q74 0 117 37q39 32 39 82v133h-170z" />
    <glyph glyph-name="quotesingle" unicode="'" horiz-adv-x="183" 
d="M117 443h-51l-19 219h89z" />
    <glyph glyph-name="parenleft" unicode="(" horiz-adv-x="245" 
d="M231 700q-120 -194 -120 -420t120 -418h-68q-128 199 -128 419t128 419h68z" />
    <glyph glyph-name="parenright" unicode=")" horiz-adv-x="245" 
d="M14 -138q120 192 120 418t-120 420h68q128 -199 128 -419t-128 -419h-68z" />
    <glyph glyph-name="asterisk" unicode="*" horiz-adv-x="373" 
d="M218 516l74 -82l-51 -37l-54 95l-55 -95l-51 37l74 81l-107 23l19 60l100 -45l-12 109h63l-12 -109l100 45l19 -60z" />
    <glyph glyph-name="plus" unicode="+" 
d="M500 203h-193v-203h-65v203h-192v65h192v203h65v-203h193v-65z" />
    <glyph glyph-name="comma" unicode="," horiz-adv-x="220" 
d="M69 80h98l-88 -213h-68z" />
    <glyph glyph-name="hyphen" unicode="-" horiz-adv-x="356" 
d="M53 332h250v-73h-250v73z" />
    <glyph glyph-name="period" unicode="." horiz-adv-x="203" 
d="M150 102v-102h-97v102h97z" />
    <glyph glyph-name="slash" unicode="/" horiz-adv-x="371" 
d="M335 680l-229 -712h-70l229 712h70z" />
    <glyph glyph-name="zero" unicode="0" 
d="M43 331q0 339 232 339q126 -2 185 -106q47 -84 47 -233q0 -339 -232 -339t-232 339zM275 65q132 3 151 173q6 47 6 93q0 134 -37 200t-120 66t-120 -66t-37 -200t37 -200t120 -66z" />
    <glyph glyph-name="one" unicode="1" 
d="M350 662v-662h-75v590h-140v72h215z" />
    <glyph glyph-name="two" unicode="2" 
d="M499 472q0 -43 -25.5 -83t-64.5 -75t-84.5 -66t-85.5 -60.5t-67.5 -58t-30.5 -57.5h356v-72h-445v41q0 49 27.5 89.5t69 76t89.5 67t89.5 63.5t69 65t27.5 71q0 58 -38.5 91t-107.5 33t-110.5 -29.5t-49.5 -85.5h-75q8 84 73 136t157 52q105 0 167 -56q59 -54 59 -142z
" />
    <glyph glyph-name="three" unicode="3" 
d="M380 353q58 -22 90 -65.5t32 -92.5t-17.5 -85.5t-48.5 -62.5q-64 -55 -159 -55q-94 0 -161 53q-67 54 -75 130h76q8 -46 53 -78q46 -32 107 -32q69 0 111 36q39 34 39 87q0 52 -40 88q-42 38 -103 38h-76v69h67q52 0 91 30t39 78t-33 77t-96.5 29t-100 -28t-43.5 -66h-73
q7 66 61 114q60 53 151 53q96 0 153 -50q56 -48 56 -126q0 -46 -34 -90q-30 -41 -66 -51z" />
    <glyph glyph-name="four" unicode="4" 
d="M511 236v-67h-89v-169h-75v169h-316v73l278 420h113v-426h89zM347 236v362l-246 -362h246z" />
    <glyph glyph-name="five" unicode="5" 
d="M162 398q51 31 109 31t99 -16t70 -45q62 -60 62 -156q0 -92 -64 -156t-158 -64q-114 0 -178 62q-47 45 -60 112h77q23 -68 94 -92q27 -9 62.5 -9t63 11.5t47.5 31.5q41 43 41 104q0 65 -41 106t-107 41q-45 0 -79.5 -16.5t-51.5 -36.5l-69 42l45 314h345v-72h-277z" />
    <glyph glyph-name="six" unicode="6" 
d="M413 508q-28 89 -119 89q-88 0 -134 -79q-42 -70 -42 -190q24 42 70.5 68t98 26t92.5 -16t71 -44q66 -62 66 -155q0 -91 -67 -154q-65 -61 -161 -61q-121 0 -183 87.5t-62 251.5q0 245 141 315q47 24 102.5 24t90.5 -14t59 -37q48 -44 61 -111h-84zM288 351
q-32 0 -59.5 -10t-48.5 -29q-45 -39 -45 -100q0 -64 45 -106q42 -41 108 -41q64 0 108 40q45 41 45 102t-45 103q-45 41 -108 41z" />
    <glyph glyph-name="seven" unicode="7" 
d="M506 662v-85l-276 -577h-87l286 590h-382v72h459z" />
    <glyph glyph-name="eight" unicode="8" 
d="M385 364q59 -23 93 -70t34 -97.5t-16 -87t-46 -62.5q-63 -55 -175 -55t-175 55q-62 54 -62 143q0 57 34 104t93 70q-38 14 -67 46q-34 39 -34 93q0 75 54 121t157 46t157 -46t54 -121q0 -79 -67 -121q-18 -12 -34 -18zM275 396q53 0 91 24q45 29 45 78t-38 74.5t-98 25.5
t-98 -25.5t-38 -74.5t41.5 -75.5t94.5 -26.5zM275 64q75 0 118.5 34t43.5 93q0 62 -48 101q-45 35 -114 35t-114 -35q-48 -39 -48 -99.5t43.5 -94.5t118.5 -34z" />
    <glyph glyph-name="nine" unicode="9" 
d="M137 154q28 -89 119 -89q88 0 134 79q42 70 42 190q-24 -42 -70.5 -68t-98 -26t-92.5 16t-71 44q-66 62 -66 155q0 91 67 154q65 61 161 61q121 0 183 -87.5t62 -251.5q0 -245 -141 -315q-47 -24 -102.5 -24t-90.5 14t-59 37q-48 44 -61 111h84zM262 311q31 0 59 10
t49 29q45 39 45 100q0 64 -45 106q-42 41 -108 41q-64 0 -108 -40q-45 -41 -45 -102t45 -103q45 -41 108 -41z" />
    <glyph glyph-name="colon" unicode=":" horiz-adv-x="203" 
d="M150 102v-102h-97v102h97zM150 500v-102h-97v102h97z" />
    <glyph glyph-name="semicolon" unicode=";" horiz-adv-x="245" 
d="M177 500v-102h-97v102h97zM83 80h98l-88 -213h-68z" />
    <glyph glyph-name="less" unicode="&#x3c;" 
d="M507 8l-481 212v63l481 213v-78l-405 -166l405 -166v-78z" />
    <glyph glyph-name="equal" unicode="=" 
d="M493 368v-67h-436v67h436zM57 170h436v-67h-436v67z" />
    <glyph glyph-name="greater" unicode="&#x3e;" 
d="M42 86l405 166l-405 166v78l481 -213v-63l-481 -212v78z" />
    <glyph glyph-name="question" unicode="?" horiz-adv-x="515" 
d="M465 486q0 -36 -12 -64t-30.5 -50.5t-40 -41.5t-40.5 -40q-42 -48 -42 -107h-73q0 93 83 169q51 45 67.5 75.5t16.5 55.5t-6 44.5t-21 36.5q-34 37 -101 37q-69 0 -112 -41q-40 -38 -44 -94h-71q4 85 63 143q63 61 158 61q102 0 156 -56q49 -51 49 -128zM312 102v-102
h-97v102h97z" />
    <glyph glyph-name="at" unicode="@" horiz-adv-x="852" 
d="M596 221q0 -53 54 -53t88.5 47t34.5 149q0 128 -89 217q-88 88 -216 88q-75 0 -144 -30.5t-121.5 -82.5t-84 -121t-31.5 -140t23.5 -126t65.5 -95q88 -87 217 -87t219 74l22 -30q-102 -81 -242 -81q-75 0 -138 27t-108 73.5t-70.5 108t-25.5 137t33.5 151t91 133
t133.5 92t152 34.5t138 -26t109 -71.5t75 -107t28 -129.5t-16 -114t-42 -76q-51 -59 -128 -59q-58 0 -80 35q-11 15 -13 35q-57 -70 -145 -70q-82 0 -128 47q-42 45 -42 119q0 108 66 176q65 67 160 67t132 -70l10 64h60l-47 -292q-1 -2 -1 -4v-9zM558 358q0 51 -29 86
q-30 35 -86 35q-74 0 -120 -50q-47 -51 -47 -134q0 -51 31 -84.5t98.5 -33.5t110 53t42.5 128z" />
    <glyph glyph-name="A" unicode="A" horiz-adv-x="662" 
d="M659 0h-83l-81 192h-328l-81 -192h-83l281 662h94zM466 261l-135 323l-135 -323h270z" />
    <glyph glyph-name="B" unicode="B" horiz-adv-x="662" 
d="M587 487q0 -109 -89 -149q82 -27 112 -99q11 -28 11 -65q0 -120 -127 -160q-42 -14 -99 -14h-314v662h297q107 0 163 -58q46 -46 46 -117zM156 366h222q92 0 123 63q11 22 11 47.5t-7 45t-22 34.5q-33 35 -97 35h-230v-225zM403 71q69 0 106 28.5t37 80.5q0 50 -36 82
q-40 36 -115 36h-239v-227h247z" />
    <glyph glyph-name="C" unicode="C" horiz-adv-x="690" 
d="M376 65q71 0 124.5 36t79.5 97h79q-33 -94 -109 -148q-81 -58 -191 -58q-145 0 -235 99q-85 95 -85 240t85 240q90 99 235 99q110 0 191 -58q76 -54 109 -148h-79q-26 61 -79.5 97t-124.5 36t-118 -20.5t-79 -56.5q-65 -73 -65 -189t65 -189q68 -77 197 -77z" />
    <glyph glyph-name="D" unicode="D" horiz-adv-x="704" 
d="M360 662q59 0 114 -22.5t97 -65.5q93 -95 93 -243t-93 -243q-42 -43 -97 -65.5t-114 -22.5h-279v662h279zM357 71q104 0 169 77q63 74 63 183t-63 183q-65 77 -169 77h-201v-520h201z" />
    <glyph glyph-name="E" unicode="E" horiz-adv-x="608" 
d="M156 590v-222h368v-73h-368v-223h412v-72h-487v662h487v-72h-412z" />
    <glyph glyph-name="F" unicode="F" horiz-adv-x="583" 
d="M156 590v-230h359v-73h-359v-287h-75v662h478v-72h-403z" />
    <glyph glyph-name="G" unicode="G" horiz-adv-x="723" 
d="M230 643.5q60 26.5 124 26.5t111 -14t85 -38q79 -51 116 -136h-82q-30 54 -83.5 84.5t-121.5 30.5t-116 -20.5t-81 -56.5q-68 -74 -68 -189q0 -116 67 -189q71 -77 188 -77q94 0 162 58q72 61 72 161h-242v68h311v-352h-69v117q-57 -86 -158 -115q-37 -10 -97.5 -10
t-120.5 26.5t-102 72.5q-86 94 -86 240q0 144 89 240q42 46 102 72.5z" />
    <glyph glyph-name="H" unicode="H" horiz-adv-x="697" 
d="M616 662v-662h-75v295h-385v-295h-75v662h75v-294h385v294h75z" />
    <glyph glyph-name="I" unicode="I" horiz-adv-x="237" 
d="M156 0h-75v662h75v-662z" />
    <glyph glyph-name="J" unicode="J" horiz-adv-x="527" 
d="M452 662v-443q0 -96 -48 -157q-56 -70 -168 -70q-101 0 -161 58q-53 53 -60 127h78q7 -44 41 -75q40 -37 106 -37q80 0 114 53q23 37 23 104v440h75z" />
    <glyph glyph-name="K" unicode="K" horiz-adv-x="641" 
d="M348 396l298 -396h-94l-259 345l-137 -128v-217h-75v662h75v-345l368 345h106z" />
    <glyph glyph-name="L" unicode="L" horiz-adv-x="533" 
d="M156 662v-590h361v-72h-436v662h75z" />
    <glyph glyph-name="M" unicode="M" horiz-adv-x="806" 
d="M725 662v-662h-75v548l-245 -315l-249 315v-548h-75v662h87l237 -314l233 314h87z" />
    <glyph glyph-name="N" unicode="N" horiz-adv-x="733" 
d="M652 662v-662h-87l-409 559v-559h-75v662h87l409 -557v557h75z" />
    <glyph glyph-name="O" unicode="O" horiz-adv-x="750" 
d="M375 670q148 0 243 -99q93 -96 93 -240t-93 -240q-95 -99 -243 -99t-243 99q-93 96 -93 240t93 240q95 99 243 99zM375 65q118 0 191 77q70 74 70 189t-70 189q-73 77 -191 77t-191 -77q-70 -74 -70 -189t70 -189q73 -77 191 -77z" />
    <glyph glyph-name="P" unicode="P" horiz-adv-x="628" 
d="M156 0h-75v662h298q105 0 167 -58q61 -58 61 -155q0 -98 -61.5 -155.5t-166.5 -57.5h-223v-236zM156 591v-285h218q78 0 118 38t40 104.5t-40 104.5t-118 38h-218z" />
    <glyph glyph-name="Q" unicode="Q" horiz-adv-x="750" 
d="M597 -93q65 0 121 45l40 -54q-69 -55 -162 -55q-74 0 -138 41t-97 109q-143 6 -233 103q-89 94 -89 235q0 144 93 240q95 99 243 99t243 -99q93 -96 93 -240q0 -126 -76 -219q-76 -94 -198 -114q29 -58 99 -82q26 -9 61 -9zM375 65q118 0 191 77q70 74 70 189t-70 189
q-73 77 -191 77t-191 -77q-70 -74 -70 -189t70 -189q73 -77 191 -77z" />
    <glyph glyph-name="R" unicode="R" horiz-adv-x="669" 
d="M156 0h-75v662h317q101 0 162 -56q61 -55 61 -151q0 -124 -103 -169q-29 -13 -57 -19l174 -267h-89l-160 254h-230v-254zM156 325h229q106 0 146 66q15 25 15 64q0 63 -43 99.5t-114 36.5h-233v-266z" />
    <glyph glyph-name="S" unicode="S" horiz-adv-x="615" 
d="M131.5 524q-6.5 -20 -6.5 -42.5t19.5 -41.5t51.5 -32t73 -23t83.5 -20.5t83.5 -24t73 -34.5q71 -45 71 -123q0 -93 -69.5 -142t-192.5 -49q-139 0 -212 58q-65 52 -74 148h78q4 -68 66 -104q54 -31 143 -31q186 0 186 117q0 40 -33.5 63t-84 38t-109 28t-109 33.5t-84 54
t-33.5 90.5q0 81 62 132t187 51q126 0 195 -58q63 -51 67 -131h-77q-10 82 -106 109q-34 10 -84.5 10t-85 -11.5t-53.5 -28t-25.5 -36.5z" />
    <glyph glyph-name="T" unicode="T" horiz-adv-x="565" 
d="M551 590h-231v-590h-75v590h-231v72h537v-72z" />
    <glyph glyph-name="U" unicode="U" horiz-adv-x="709" 
d="M636 662v-377q0 -132 -78.5 -212.5t-203.5 -80.5q-124 0 -202.5 80.5t-78.5 212.5v377h75v-379q0 -107 64 -167q55 -51 142 -51t143 51q64 59 64 167v379h75z" />
    <glyph glyph-name="V" unicode="V" horiz-adv-x="628" 
d="M625 662l-268 -662h-86l-268 662h82l229 -577l229 577h82z" />
    <glyph glyph-name="W" unicode="W" horiz-adv-x="958" 
d="M300 0h-85l-206 662h79l170 -556l178 556h86l178 -556l170 556h79l-206 -662h-85l-179 556z" />
    <glyph glyph-name="X" unicode="X" horiz-adv-x="613" 
d="M352 342l264 -342h-95l-215 284l-214 -284h-95l264 342l-246 320h95l196 -260l197 260h95z" />
    <glyph glyph-name="Y" unicode="Y" horiz-adv-x="629" 
d="M352 0h-75v262l-278 400h91l224 -322l224 322h91l-277 -400v-262z" />
    <glyph glyph-name="Z" unicode="Z" horiz-adv-x="584" 
d="M121 70h432v-70h-524v71l432 521h-426v70h518v-72z" />
    <glyph glyph-name="bracketleft" unicode="[" horiz-adv-x="280" 
d="M132 617v-688h121v-62h-187v812h187v-62h-121z" />
    <glyph glyph-name="backslash" unicode="\" horiz-adv-x="371" 
d="M106 680l229 -712h-70l-229 712h70z" />
    <glyph glyph-name="bracketright" unicode="]" horiz-adv-x="280" 
d="M27 617v62h187v-812h-187v62h121v688h-121z" />
    <glyph glyph-name="asciicircum" unicode="^" horiz-adv-x="500" 
d="M434 355h-70l-109 215l-110 -215h-70l149 313h61z" />
    <glyph glyph-name="underscore" unicode="_" horiz-adv-x="600" 
d="M50 -73h500v-55h-500v55z" />
    <glyph glyph-name="grave" unicode="`" horiz-adv-x="340" 
d="M261 570h-61l-107 105h107z" />
    <glyph glyph-name="a" unicode="a" horiz-adv-x="595" 
d="M455 80q-60 -88 -179 -88q-108 0 -176 75q-66 74 -66 183t66 183q68 75 181 75t174 -89v81h75v-500h-75v80zM286 60q81 0 128 56q45 53 45 134t-45 134q-47 56 -128 56q-80 0 -130 -56q-47 -53 -47 -134t47 -134q50 -56 130 -56z" />
    <glyph glyph-name="b" unicode="b" horiz-adv-x="594" 
d="M140 419q61 89 179 89q108 0 175 -75q67 -74 67 -183t-67 -183q-67 -75 -180.5 -75t-173.5 88v-80h-75v700h75v-281zM309 60q80 0 130 56q47 53 47 134t-47 134q-50 56 -130 56q-81 0 -128 -56q-45 -53 -45 -134t45 -134q47 -56 128 -56z" />
    <glyph glyph-name="c" unicode="c" horiz-adv-x="544" 
d="M296 60q48 0 85 27t54 70h81q-23 -74 -84 -119q-64 -46 -152 -46q-110 0 -179 75q-67 73 -67 183t67 183q69 75 179 75q88 0 152 -46q61 -45 84 -119h-81q-17 43 -54 70t-85 27t-81.5 -15t-56.5 -41q-49 -54 -49 -134t49 -134q50 -56 138 -56z" />
    <glyph glyph-name="d" unicode="d" horiz-adv-x="595" 
d="M455 80q-60 -88 -179 -88q-108 0 -176 75q-66 74 -66 183t66 183q68 75 181 75t174 -89v281h75v-700h-75v80zM286 60q81 0 128 56q45 53 45 134t-45 134q-47 56 -128 56q-80 0 -130 -56q-47 -53 -47 -134t47 -134q50 -56 130 -56z" />
    <glyph glyph-name="e" unicode="e" horiz-adv-x="557" 
d="M288 60q101 0 145 84h82q-26 -68 -82.5 -110t-145.5 -42q-113 0 -184 75q-69 73 -69 183q0 111 66 183q70 75 182 75t182 -75q66 -72 66 -183v-30h-419q8 -69 55 -114q48 -46 122 -46zM282 440q-69 0 -116 -43q-44 -41 -54 -107h340q-10 66 -54 107q-47 43 -116 43z" />
    <glyph glyph-name="f" unicode="f" horiz-adv-x="307" 
d="M280 637q-53 0 -79.5 -23.5t-26.5 -75.5v-38h116v-66h-116v-434h-75v434h-86v66h86v44q0 82 49 123t136 41h6v-71h-10z" />
    <glyph glyph-name="g" unicode="g" horiz-adv-x="595" 
d="M455 420v80h75v-485q0 -108 -61.5 -164.5t-165.5 -56.5t-162.5 40t-79.5 106h83q32 -78 146 -78q87 0 126 40t39 118v69q-61 -89 -179 -89q-108 0 -176 74q-66 72 -66 180t66 180q68 74 181.5 74t173.5 -88zM286 68q41 0 73 14.5t55 39.5q45 52 45 132t-45 132
q-49 54 -128 54q-81 0 -130 -54q-47 -53 -47 -132t47 -132q49 -54 130 -54z" />
    <glyph glyph-name="h" unicode="h" horiz-adv-x="566" 
d="M140 700v-278q27 36 66 61t89 25t86 -14t63 -42q62 -61 62 -161v-291h-75v289q0 69 -39 110t-101 41q-63 0 -107 -42q-44 -43 -44 -110v-288h-75v700h75z" />
    <glyph glyph-name="i" unicode="i" horiz-adv-x="205" 
d="M65 500h75v-500h-75v500zM143 682v-98h-81v98h81z" />
    <glyph glyph-name="j" unicode="j" horiz-adv-x="205" 
d="M65 500h75v-698h-75v698zM143 682v-98h-81v98h81z" />
    <glyph glyph-name="k" unicode="k" horiz-adv-x="502" 
d="M285 303l216 -303h-92l-175 251l-94 -93v-158h-75v700h75v-448l241 248h105z" />
    <glyph glyph-name="l" unicode="l" horiz-adv-x="205" 
d="M140 0h-75v700h75v-700z" />
    <glyph glyph-name="m" unicode="m" horiz-adv-x="868" 
d="M140 424q50 84 152 84q50 0 92.5 -26.5t66.5 -74.5q34 63 106 90q29 11 65.5 11t70 -14.5t59.5 -41.5q56 -60 56 -150v-302h-75v300q0 62 -35 102q-35 38 -89 38q-57 0 -95 -37q-40 -38 -40 -104v-299h-75v300q0 62 -35 102q-35 38 -89 38q-57 0 -95 -37
q-40 -38 -40 -104v-299h-75v500h75v-76z" />
    <glyph glyph-name="n" unicode="n" horiz-adv-x="566" 
d="M140 500v-78q27 36 66 61t89 25t86 -14t63 -42q62 -61 62 -161v-291h-75v289q0 69 -39 110t-101 41q-63 0 -107 -42q-44 -43 -44 -110v-288h-75v500h75z" />
    <glyph glyph-name="o" unicode="o" horiz-adv-x="564" 
d="M282 508q112 0 182 -75q66 -72 66 -183t-66 -183q-70 -75 -182 -75t-182 75q-66 72 -66 183t66 183q70 75 182 75zM282 60q81 0 128 56q45 53 45 134t-45 134q-47 56 -128 56t-128 -56q-45 -53 -45 -134t45 -134q47 -56 128 -56z" />
    <glyph glyph-name="p" unicode="p" horiz-adv-x="594" 
d="M140 420q60 88 179 88q108 0 175 -75q67 -74 67 -183t-67 -183q-67 -75 -180 -75t-174 89v-279h-75v698h75v-80zM309 440q-81 0 -128 -56q-45 -53 -45 -134t45 -134q47 -56 128 -56q80 0 130 56q47 53 47 134t-47 134q-50 56 -130 56z" />
    <glyph glyph-name="q" unicode="q" horiz-adv-x="595" 
d="M455 81q-61 -89 -179 -89q-108 0 -176 75q-66 74 -66 183t66 183q68 75 181.5 75t173.5 -88v80h75v-698h-75v279zM286 440q-80 0 -130 -56q-47 -53 -47 -134t47 -134q50 -56 130 -56q81 0 128 56q45 53 45 134t-45 134q-47 56 -128 56z" />
    <glyph glyph-name="r" unicode="r" horiz-adv-x="345" 
d="M329 508v-75h-9q-81 0 -132 -65q-48 -62 -48 -148v-220h-75v500h75v-123q24 78 104 115q33 16 80 16h5z" />
    <glyph glyph-name="s" unicode="s" horiz-adv-x="482" 
d="M359 366q-10 78 -125.5 78t-115.5 -72q0 -30 24.5 -45.5t61.5 -25.5t80.5 -18.5t80.5 -24t61.5 -42.5t24.5 -74q0 -73 -55 -111.5t-149 -38.5q-100 0 -159 50q-54 44 -58 115h78q7 -69 78 -93q26 -8 51.5 -8t47.5 3t43 11q48 19 48 65q0 31 -24.5 47.5t-61.5 27t-80.5 19
t-80.5 23.5t-61.5 41t-24.5 72q0 68 49.5 105.5t146.5 37.5q92 0 145 -44q44 -37 51 -98h-76z" />
    <glyph glyph-name="t" unicode="t" horiz-adv-x="326" 
d="M119 0v434h-102v66h102v179h75v-179h115v-66h-115v-434h-75z" />
    <glyph glyph-name="u" unicode="u" horiz-adv-x="566" 
d="M426 0v78q-27 -36 -66 -61t-89 -25t-86 14t-63 42q-62 61 -62 161v291h75v-289q0 -69 39 -110t101 -41q63 0 107 42q44 43 44 110v288h75v-500h-75z" />
    <glyph glyph-name="v" unicode="v" horiz-adv-x="489" 
d="M484 500l-195 -500h-88l-196 500h82l158 -420l157 420h82z" />
    <glyph glyph-name="w" unicode="w" horiz-adv-x="754" 
d="M377 399l-125 -399h-86l-157 500h80l120 -407l127 407h82l127 -407l120 407h80l-157 -500h-86z" />
    <glyph glyph-name="x" unicode="x" horiz-adv-x="482" 
d="M284 258l194 -258h-96l-141 204l-142 -204h-95l193 258l-181 242h96l129 -189l128 189h96z" />
    <glyph glyph-name="y" unicode="y" horiz-adv-x="497" 
d="M198 -198h-81l91 205l-204 493h83l161 -410l164 410h82z" />
    <glyph glyph-name="z" unicode="z" horiz-adv-x="458" 
d="M125 70h300v-70h-394v71l299 360h-295v69h390v-70z" />
    <glyph glyph-name="braceleft" unicode="{" horiz-adv-x="294" 
d="M96 273q70 -35 70 -129v-132q0 -52 21.5 -71.5t81.5 -19.5v-54q-36 0 -66.5 3.5t-53.5 17.5q-49 31 -49 123v144q0 46 -28 73q-23 22 -51 22v46q28 0 45 17q34 32 34 78v144q0 129 102 141q31 3 67 3v-54q-60 0 -81.5 -19.5t-21.5 -71.5v-132q0 -56 -21 -86t-49 -43z" />
    <glyph glyph-name="bar" unicode="|" horiz-adv-x="191" 
d="M65 -179v927h61v-927h-61z" />
    <glyph glyph-name="braceright" unicode="}" horiz-adv-x="294" 
d="M128 144q0 94 70 129q-28 13 -49 43t-21 86v132q0 52 -21.5 71.5t-81.5 19.5v54q36 0 66.5 -3.5t53.5 -17.5q49 -31 49 -123v-144q0 -46 28 -73q23 -22 51 -22v-46q-28 0 -45 -17q-34 -32 -34 -78v-144q0 -129 -102 -141q-31 -3 -67 -3v54q60 0 81.5 19.5t21.5 71.5v132z
" />
    <glyph glyph-name="asciitilde" unicode="~" horiz-adv-x="524" 
d="M48 215q15 134 112 134q37 0 90 -21t78.5 -30.5t45 -9.5t33.5 9t22 21t11.5 24t5.5 18h32q-10 -57 -24 -81.5t-34 -38.5t-49.5 -14t-59.5 9.5t-59 20.5t-54.5 20.5t-45.5 9.5t-34 -8.5t-22 -20.5t-11.5 -24t-5.5 -18h-31z" />
    <glyph glyph-name="exclamdown" unicode="&#xa1;" horiz-adv-x="207" 
d="M153 398.006v101.994h-97v-101.994h97zM77 317.011l-19 -478.971h93l-19 478.971h-55z" />
    <glyph glyph-name="cent" unicode="&#xa2;" horiz-adv-x="574" 
d="M316 60q49 4 82.5 30t50.5 67h81q-20 -69 -76.5 -113.5t-137.5 -50.5v-94h-36v93q-106 6 -169 80t-63 178t63 178t169 80v87h36v-88q81 -6 137.5 -50.5t76.5 -113.5h-81q-17 41 -50.5 67t-82.5 30v-380zM123 250q0 -72 42 -126q44 -55 115 -63v378q-73 -10 -115 -63
q-42 -54 -42 -126z" />
    <glyph glyph-name="sterling" unicode="&#xa3;" horiz-adv-x="575" 
d="M328 670q52 0 86.5 -12.5t58.5 -33.5q45 -39 58 -106h-71q-17 55 -75 74q-21 7 -57.5 7t-63.5 -14.5t-41 -36.5q-22 -35 -22 -102v-69h148v-58h-148v-249h303v-70h-456v61l80 9v249h-71v58h71v72q0 95 46 154q52 67 154 67z" />
    <glyph glyph-name="currency" unicode="&#xa4;" horiz-adv-x="567" 
d="M455 450q41 -53 41 -125.5t-41 -127.5l64 -64l-44 -45l-65 65q-54 -42 -125.5 -42t-127.5 42l-64 -65l-45 45l64 64q-41 55 -41 127.5t41 125.5l-64 65l45 45l64 -65q55 41 127.5 41t125.5 -41l65 65l44 -45zM284 172q31 0 59 12t49 32q44 45 44 108t-44.5 107.5
t-107.5 44.5t-107.5 -44.5t-44.5 -107.5t44.5 -107.5t107.5 -44.5z" />
    <glyph glyph-name="yen" unicode="&#xa5;" horiz-adv-x="657" 
d="M98 190h193v72l-17 27h-176v65h134l-195 308h91l200 -322l201 322h91l-196 -308h135v-65h-176l-17 -27v-72h193v-65h-193v-125h-75v125h-193v65z" />
    <glyph glyph-name="section" unicode="&#xa7;" horiz-adv-x="519" 
d="M396 74q39 -43 39 -94.5t-19 -81t-46 -46.5q-49 -30 -120 -30q-81 0 -137 47q-54 45 -60 112h69q6 -37 41 -63q38 -29 87 -29t80.5 20t31.5 55t-23.5 60.5t-58.5 49t-75.5 46.5t-75.5 49.5t-58.5 57.5t-23.5 71q0 87 77 118q-38 47 -38 97t18 79.5t46 46.5q48 30 117 30
q80 0 135 -47q52 -45 58 -112h-69q-6 37 -39 63q-36 29 -85 29t-78.5 -20t-29.5 -54.5t23.5 -60.5t58.5 -49.5t75.5 -46.5t75.5 -49.5t58.5 -57.5t23.5 -71q0 -88 -78 -119zM360 109q41 19 41 60t-24.5 67t-60.5 49.5t-78 46t-77 50.5q-41 -20 -41 -60.5t24.5 -67
t60.5 -49.5t78 -45.5t77 -50.5z" />
    <glyph glyph-name="dieresis" unicode="&#xa8;" horiz-adv-x="423" 
d="M163 662v-83h-89v83h89zM320 662v-83h-89v83h89z" />
    <glyph glyph-name="copyright" unicode="&#xa9;" horiz-adv-x="779" 
d="M466.5 440q-28.5 21 -79.5 21t-84 -36.5t-33 -95.5t33 -95.5t84 -36.5t79.5 21t35.5 58h67q-12 -70 -61 -108q-46 -35 -119 -35q-87 0 -137 55q-50 56 -50 141q0 86 50 140q51 55 137 55q110 0 158 -80q16 -26 22 -62h-67q-7 37 -35.5 58zM389 672q71 0 133.5 -27
t109 -73.5t73.5 -109t27 -133.5t-27 -133t-73.5 -108.5t-109 -73.5t-133.5 -27t-133 27t-108.5 73.5t-73.5 108.5t-27 133t27 133.5t73.5 109t108.5 73.5t133 27zM389 36q122 0 208 86q40 40 63 93.5t23 114t-23 114t-63 93.5q-86 86 -208 86q-123 0 -207 -86
q-86 -87 -86 -208q0 -60 23 -113.5t63 -93.5q84 -86 207 -86z" />
    <glyph glyph-name="ordfeminine" unicode="&#xaa;" horiz-adv-x="371" 
d="M262 619v43h52v-266h-52v43q-32 -47 -95 -47q-59 0 -95 40q-35 39 -35 97t35 97q36 40 96 40t94 -47zM111 465q22 -25 64 -25t65 25.5t23 63.5t-23 63.5t-65 25.5t-64 -25.5t-22 -64t22 -63.5z" />
    <glyph glyph-name="guillemotleft" unicode="&#xab;" horiz-adv-x="487" 
d="M305 259l137 -202h-89l-130 202l130 202h89zM121 259l137 -202h-89l-130 202l130 202h89z" />
    <glyph glyph-name="logicalnot" unicode="&#xac;" horiz-adv-x="593" 
d="M62 389h467v-203h-72v135h-395v68z" />
    <glyph glyph-name="registered" unicode="&#xae;" horiz-adv-x="779" 
d="M558 407q0 -34 -20 -60.5t-55 -37.5q55 -16 67 -90q3 -19 3 -34v-47h-69v38q0 43 -9 62q-19 40 -68 40h-97v-140h-70v382h162q81 0 118.5 -31t37.5 -82zM397 338q42 0 67 16t25 45t-20 45.5t-74 16.5h-85v-123h87zM389 672q71 0 133.5 -27t109 -73.5t73.5 -109t27 -133.5
t-27 -133t-73.5 -108.5t-109 -73.5t-133.5 -27t-133 27t-108.5 73.5t-73.5 108.5t-27 133t27 133.5t73.5 109t108.5 73.5t133 27zM389 36q122 0 208 86q40 40 63 93.5t23 114t-23 114t-63 93.5q-86 86 -208 86q-123 0 -207 -86q-86 -87 -86 -208q0 -60 23 -113.5t63 -93.5
q84 -86 207 -86z" />
    <glyph glyph-name="macron" unicode="&#xaf;" horiz-adv-x="382" 
d="M321 582h-264v60h264v-60z" />
    <glyph glyph-name="degree" unicode="&#xb0;" horiz-adv-x="333" 
d="M166 667q54 0 92.5 -38.5t38.5 -92.5q0 -52 -39 -92q-36 -38 -92 -38q-54 0 -92 38t-38 92q0 56 38 92q40 39 92 39zM114.5 484.5q21.5 -21.5 52 -21.5t52 21.5t21.5 52t-21.5 52t-52 21.5t-52 -21.5t-21.5 -52t21.5 -52z" />
    <glyph glyph-name="plusminus" unicode="&#xb1;" 
d="M500 276h-193v-154h-65v154h-192v65h192v154h65v-154h193v-65zM500 0h-450v62h450v-62z" />
    <glyph glyph-name="twosuperior" unicode="&#xb2;" horiz-adv-x="354" 
d="M301 556q0 -69 -80 -122q-22 -14 -43 -28q-50 -33 -62 -54h185v-52h-249v29q0 60 97 122q58 37 77.5 60t19.5 47t-19 39t-49 15t-50.5 -18.5t-25.5 -45.5h-56q7 50 42.5 83.5t91 33.5t88.5 -31t33 -78z" />
    <glyph glyph-name="threesuperior" unicode="&#xb3;" horiz-adv-x="335" 
d="M233 492q32 -14 47 -35.5t15 -51.5t-10.5 -49t-28.5 -32q-35 -28 -86 -28q-52 0 -90 32q-38 33 -42 79h55q5 -24 26.5 -42t52.5 -18t49.5 18t18.5 41t-16.5 42t-50.5 19h-47v47h43q24 0 42 14t18 35.5t-15.5 36t-45 14.5t-46.5 -15.5t-21 -35.5h-54q4 41 35 71
q34 32 84.5 32t84 -23.5t33.5 -64.5q0 -62 -51 -86z" />
    <glyph glyph-name="acute" unicode="&#xb4;" horiz-adv-x="349" 
d="M147 675h107l-107 -105h-61z" />
    <glyph glyph-name="mu" unicode="&#xb5;" horiz-adv-x="564" 
d="M276 -8q-79 0 -129 54v-244h-75v698h75v-289q0 -69 39 -110t101 -41q63 0 107 42q44 43 44 110v288h75v-500h-75v78q-27 -36 -64 -61t-98 -25z" />
    <glyph glyph-name="paragraph" unicode="&#xb6;" horiz-adv-x="565" 
d="M509 616h-43v-757h-59v757h-72v-757h-59v476h-73q-70 0 -118.5 48.5t-48.5 118.5q0 69 48 119q48 49 119 49h306v-54z" />
    <glyph glyph-name="periodcentered" unicode="&#xb7;" horiz-adv-x="203" 
d="M150 344v-102h-97v102h97z" />
    <glyph glyph-name="cedilla" unicode="&#xb8;" horiz-adv-x="300" 
d="M151 -54q10 2 22 2q38 0 65 -20.5t27 -56.5q0 -59 -71 -76q-20 -5 -50.5 -5t-61 12.5t-49.5 28.5l19 33q44 -30 85 -30q55 0 55 36q0 15 -16 24t-35.5 9t-36.5 -5l-21 17l69 108h43z" />
    <glyph glyph-name="onesuperior" unicode="&#xb9;" horiz-adv-x="212" 
d="M154 662v-361h-55v309h-73v52h128z" />
    <glyph glyph-name="ordmasculine" unicode="&#xba;" horiz-adv-x="342" 
d="M171 666q60 0 97 -40q37 -38 37 -97t-37 -97q-37 -40 -97 -40t-97 40q-37 38 -37 97t37 97q37 40 97 40zM171 440q41 0 61.5 26.5t20.5 62t-20.5 62.5t-61.5 27t-61.5 -27t-20.5 -62.5t20.5 -62t61.5 -26.5z" />
    <glyph glyph-name="guillemotright" unicode="&#xbb;" horiz-adv-x="487" 
d="M45 461h89l130 -202l-130 -202h-89l137 202zM229 461h89l130 -202l-130 -202h-89l137 202z" />
    <glyph glyph-name="onequarter" unicode="&#xbc;" horiz-adv-x="713" 
d="M670 137v-49h-46v-88h-55v88h-165v49l149 224h71v-224h46zM569 301l-109 -164h109v164zM167 662v-361h-55v309h-73v52h128zM98 -14l420 688h64l-420 -688h-64z" />
    <glyph glyph-name="onehalf" unicode="&#xbd;" horiz-adv-x="754" 
d="M167 662v-361h-55v309h-73v52h128zM98 -14l420 688h64l-420 -688h-64zM705 257q0 -69 -80 -122q-22 -14 -43 -28q-50 -33 -62 -54h185v-52h-249v29q0 60 97 122q58 37 77.5 60t19.5 47t-19 39t-49 15t-50.5 -18.5t-25.5 -45.5h-56q7 50 42.5 83.5t91 33.5t88.5 -31
t33 -78z" />
    <glyph glyph-name="threequarters" unicode="&#xbe;" horiz-adv-x="785" 
d="M744 137v-49h-46v-88h-55v88h-165v49l149 224h71v-224h46zM643 301l-109 -164h109v164zM172 -14l420 688h64l-420 -688h-64zM238 492q32 -14 47 -35.5t15 -51.5t-10.5 -49t-27.5 -32q-36 -28 -87 -28q-52 0 -89 32q-39 33 -43 79h55q5 -24 26.5 -42t52.5 -18t49.5 18
t18.5 41t-16.5 42t-50.5 19h-47v47h43q24 0 42 14t18 35.5t-15.5 36t-45 14.5t-46.5 -15.5t-21 -35.5h-54q4 41 35 71q34 32 84.5 32t84 -23.5t33.5 -64.5q0 -62 -51 -86z" />
    <glyph glyph-name="questiondown" unicode="&#xbf;" horiz-adv-x="507" 
d="M45.0283 14.0293q0 35.998 11.999 63.9961q12 27.999 30.498 50.4971q18.499 22.499 39.998 41.498q21.499 18.998 40.4971 39.9971q41.998 47.9971 41.998 106.993h72.9951q0 -92.9941 -82.9951 -168.989q-50.9961 -44.9971 -67.4951 -75.4951t-16.499 -55.4971
q0 -24.998 5.99902 -44.4971q6 -19.499 20.999 -36.498q33.998 -36.9971 100.994 -36.9971q68.9951 0 111.993 40.9971q39.9971 37.998 43.9971 93.9941h70.9951q-3.99902 -84.9951 -62.9961 -142.991q-62.9961 -60.9961 -157.99 -60.9961q-101.993 0 -155.99 55.9961
q-48.9971 50.9971 -48.9971 127.992zM198.02 398.006v101.994h96.9932v-101.994h-96.9932z" />
    <glyph glyph-name="Agrave" unicode="&#xc0;" horiz-adv-x="662" 
d="M659 0h-83l-81 192h-328l-81 -192h-83l281 662h94zM466 261l-135 323l-135 -323h270zM393 715h-61l-107 105h107z" />
    <glyph glyph-name="Aacute" unicode="&#xc1;" horiz-adv-x="662" 
d="M659 0h-83l-81 192h-328l-81 -192h-83l281 662h94zM466 261l-135 323l-135 -323h270zM328 820h107l-107 -105h-61z" />
    <glyph glyph-name="Acircumflex" unicode="&#xc2;" horiz-adv-x="662" 
d="M659 0h-83l-81 192h-328l-81 -192h-83l281 662h94zM466 261l-135 323l-135 -323h270zM390 715l-59 54l-59 -54h-82l98 105h87l97 -105h-82z" />
    <glyph glyph-name="Atilde" unicode="&#xc3;" horiz-adv-x="662" 
d="M659 0h-83l-81 192h-328l-81 -192h-83l281 662h94zM466 261l-135 323l-135 -323h270zM259 754q-35 0 -50 -39h-31q7 66 55 90q18 8 42 8q33 0 61 -14t42.5 -20.5t34 -6.5t31 13.5t15.5 26.5h32q-16 -98 -96 -98q-36 0 -63 13.5t-41.5 20t-31.5 6.5z" />
    <glyph glyph-name="Adieresis" unicode="&#xc4;" horiz-adv-x="662" 
d="M659 0h-83l-81 192h-328l-81 -192h-83l281 662h94zM466 261l-135 323l-135 -323h270zM297 803v-83h-89v83h89zM454 803v-83h-89v83h89z" />
    <glyph glyph-name="Aring" unicode="&#xc5;" horiz-adv-x="662" 
d="M279 651q-38 27 -38 69t26 68t63 26t64 -26q27 -25 27 -68t-39 -69l277 -651h-83l-81 192h-328l-81 -192h-83zM466 261l-135 323l-135 -323h270zM300 693q13 -13 31 -13t31 13t13 31.5t-13 31.5t-31 13t-31 -13t-13 -31.5t13 -31.5z" />
    <glyph glyph-name="AE" unicode="&#xc6;" horiz-adv-x="1022" 
d="M983 662v-72h-387v-222h343v-73h-343v-223h387v-72h-462v185h-309l-125 -185h-90l453 662h533zM521 590h-34l-228 -336h262v336z" />
    <glyph glyph-name="Ccedilla" unicode="&#xc7;" horiz-adv-x="690" 
d="M349 -54q10 2 22 2q38 0 65 -20.5t27 -56.5q0 -59 -71 -76q-20 -5 -50.5 -5t-61 12.5t-49.5 28.5l19 33q44 -30 85 -30q55 0 55 36q0 15 -16 24t-35.5 9t-36.5 -5l-21 17l50 78q-135 10 -215 107q-77 94 -77 231q0 145 85 240q90 99 235 99q110 0 191 -58
q76 -54 109 -148h-79q-26 61 -79.5 97t-124.5 36t-118 -20.5t-79 -56.5q-65 -73 -65 -189t65 -189q68 -77 186 -77q82 0 135.5 36t79.5 97h79q-31 -88 -104 -144.5t-180 -61.5z" />
    <glyph glyph-name="Egrave" unicode="&#xc8;" horiz-adv-x="608" 
d="M156 590v-222h368v-73h-368v-223h412v-72h-487v662h487v-72h-412zM385 715h-61l-107 105h107z" />
    <glyph glyph-name="Eacute" unicode="&#xc9;" horiz-adv-x="608" 
d="M156 590v-222h368v-73h-368v-223h412v-72h-487v662h487v-72h-412zM328 820h107l-107 -105h-61z" />
    <glyph glyph-name="Ecircumflex" unicode="&#xca;" horiz-adv-x="608" 
d="M156 590v-222h368v-73h-368v-223h412v-72h-487v662h487v-72h-412zM390 715l-59 54l-59 -54h-82l98 105h87l97 -105h-82z" />
    <glyph glyph-name="Edieresis" unicode="&#xcb;" horiz-adv-x="608" 
d="M156 590v-222h368v-73h-368v-223h412v-72h-487v662h487v-72h-412zM297 803v-83h-89v83h89zM454 803v-83h-89v83h89z" />
    <glyph glyph-name="Igrave" unicode="&#xcc;" horiz-adv-x="237" 
d="M156 0h-75v662h75v-662zM185 715h-61l-107 105h107z" />
    <glyph glyph-name="Iacute" unicode="&#xcd;" horiz-adv-x="237" 
d="M156 0h-75v662h75v-662zM112 820h107l-107 -105h-61z" />
    <glyph glyph-name="Icircumflex" unicode="&#xce;" horiz-adv-x="237" 
d="M156 0h-75v662h75v-662zM178 715l-59 54l-59 -54h-82l98 105h87l97 -105h-82z" />
    <glyph glyph-name="Idieresis" unicode="&#xcf;" horiz-adv-x="237" 
d="M156 0h-75v662h75v-662zM85 803v-83h-89v83h89zM242 803v-83h-89v83h89z" />
    <glyph glyph-name="Eth" unicode="&#xd0;" horiz-adv-x="712" 
d="M368 662q59 0 114 -22.5t97 -65.5q93 -95 93 -243t-93 -243q-42 -43 -97 -65.5t-114 -22.5h-279v298h-82v65h82v299h279zM365 71q104 0 169 77q63 74 63 183t-63 183q-65 77 -169 77h-201v-228h191v-65h-191v-227h201z" />
    <glyph glyph-name="Ntilde" unicode="&#xd1;" horiz-adv-x="733" 
d="M652 662v-662h-87l-409 559v-559h-75v662h87l409 -557v557h75zM295 754q-35 0 -50 -39h-31q7 66 55 90q18 8 42 8q33 0 61 -14t42.5 -20.5t34 -6.5t31 13.5t15.5 26.5h32q-16 -98 -96 -98q-36 0 -63 13.5t-41.5 20t-31.5 6.5z" />
    <glyph glyph-name="Ograve" unicode="&#xd2;" horiz-adv-x="750" 
d="M375 670q148 0 243 -99q93 -96 93 -240t-93 -240q-95 -99 -243 -99t-243 99q-93 96 -93 240t93 240q95 99 243 99zM375 65q118 0 191 77q70 74 70 189t-70 189q-73 77 -191 77t-191 -77q-70 -74 -70 -189t70 -189q73 -77 191 -77zM444 715h-61l-107 105h107z" />
    <glyph glyph-name="Oacute" unicode="&#xd3;" horiz-adv-x="750" 
d="M375 670q148 0 243 -99q93 -96 93 -240t-93 -240q-95 -99 -243 -99t-243 99q-93 96 -93 240t93 240q95 99 243 99zM375 65q118 0 191 77q70 74 70 189t-70 189q-73 77 -191 77t-191 -77q-70 -74 -70 -189t70 -189q73 -77 191 -77zM363 820h107l-107 -105h-61z" />
    <glyph glyph-name="Ocircumflex" unicode="&#xd4;" horiz-adv-x="750" 
d="M375 670q148 0 243 -99q93 -96 93 -240t-93 -240q-95 -99 -243 -99t-243 99q-93 96 -93 240t93 240q95 99 243 99zM375 65q118 0 191 77q70 74 70 189t-70 189q-73 77 -191 77t-191 -77q-70 -74 -70 -189t70 -189q73 -77 191 -77zM434 715l-59 54l-59 -54h-82l98 105h87
l97 -105h-82z" />
    <glyph glyph-name="Otilde" unicode="&#xd5;" horiz-adv-x="750" 
d="M375 670q148 0 243 -99q93 -96 93 -240t-93 -240q-95 -99 -243 -99t-243 99q-93 96 -93 240t93 240q95 99 243 99zM375 65q118 0 191 77q70 74 70 189t-70 189q-73 77 -191 77t-191 -77q-70 -74 -70 -189t70 -189q73 -77 191 -77zM301 754q-35 0 -50 -39h-31q7 66 55 90
q18 8 42 8q33 0 61 -14t42.5 -20.5t34 -6.5t31 13.5t15.5 26.5h32q-16 -98 -96 -98q-36 0 -63 13.5t-41.5 20t-31.5 6.5z" />
    <glyph glyph-name="Odieresis" unicode="&#xd6;" horiz-adv-x="750" 
d="M375 670q148 0 243 -99q93 -96 93 -240t-93 -240q-95 -99 -243 -99t-243 99q-93 96 -93 240t93 240q95 99 243 99zM375 65q118 0 191 77q70 74 70 189t-70 189q-73 77 -191 77t-191 -77q-70 -74 -70 -189t70 -189q73 -77 191 -77zM341 803v-83h-89v83h89zM498 803v-83
h-89v83h89z" />
    <glyph glyph-name="multiply" unicode="&#xd7;" 
d="M325 257l153 -153l-49 -50l-154 154l-153 -154l-50 50l154 153l-154 154l50 49l153 -153l154 153l49 -49z" />
    <glyph glyph-name="Oslash" unicode="&#xd8;" horiz-adv-x="750" 
d="M375 670q121 0 210 -68l67 78l32 -28l-68 -78q95 -95 95 -243q0 -144 -93 -240q-95 -99 -243 -99q-118 0 -209 69l-68 -78l-31 28l68 77q-96 98 -96 243q0 144 93 240q95 99 243 99zM536 547q-67 50 -161 50q-118 0 -191 -77q-70 -74 -70 -189q0 -114 69 -187zM214 116
q68 -51 161 -51q118 0 191 77q70 74 70 189q0 114 -68 188z" />
    <glyph glyph-name="Ugrave" unicode="&#xd9;" horiz-adv-x="709" 
d="M636 662v-377q0 -132 -78.5 -212.5t-203.5 -80.5q-124 0 -202.5 80.5t-78.5 212.5v377h75v-379q0 -107 64 -167q55 -51 142 -51t143 51q64 59 64 167v379h75zM412 715h-61l-107 105h107z" />
    <glyph glyph-name="Uacute" unicode="&#xda;" horiz-adv-x="709" 
d="M636 662v-377q0 -132 -78.5 -212.5t-203.5 -80.5q-124 0 -202.5 80.5t-78.5 212.5v377h75v-379q0 -107 64 -167q55 -51 142 -51t143 51q64 59 64 167v379h75zM355 820h107l-107 -105h-61z" />
    <glyph glyph-name="Ucircumflex" unicode="&#xdb;" horiz-adv-x="709" 
d="M636 662v-377q0 -132 -78.5 -212.5t-203.5 -80.5q-124 0 -202.5 80.5t-78.5 212.5v377h75v-379q0 -107 64 -167q55 -51 142 -51t143 51q64 59 64 167v379h75zM413 715l-59 54l-59 -54h-82l98 105h87l97 -105h-82z" />
    <glyph glyph-name="Udieresis" unicode="&#xdc;" horiz-adv-x="709" 
d="M636 662v-377q0 -132 -78.5 -212.5t-203.5 -80.5q-124 0 -202.5 80.5t-78.5 212.5v377h75v-379q0 -107 64 -167q55 -51 142 -51t143 51q64 59 64 167v379h75zM320 803v-83h-89v83h89zM477 803v-83h-89v83h89z" />
    <glyph glyph-name="Yacute" unicode="&#xdd;" horiz-adv-x="629" 
d="M352 0h-75v262l-278 400h91l224 -322l224 322h91l-277 -400v-262zM310 820h107l-107 -105h-61z" />
    <glyph glyph-name="Thorn" unicode="&#xde;" horiz-adv-x="627" 
d="M156 0h-75v662h75v-97h223q105 0 167 -58q61 -58 61 -155q0 -98 -61.5 -155.5t-166.5 -57.5h-223v-139zM156 494v-285h218q78 0 118 38t40 104.5t-40 104.5t-118 38h-218z" />
    <glyph glyph-name="germandbls" unicode="&#xdf;" horiz-adv-x="557" 
d="M489 488q0 -117 -108 -151q91 -21 128 -100q14 -30 14 -72q0 -80 -61.5 -122.5t-168.5 -42.5h-88v66h89q69 0 111 26.5t42 83.5t-50 92.5t-144 35.5v55q69 0 114 31q47 34 47 88.5t-33.5 89.5t-102.5 35q-99 0 -128 -63q-10 -24 -10 -60v-480h-75v484q0 87 56.5 136.5
t157.5 49.5q89 0 146 -43q64 -49 64 -139z" />
    <glyph glyph-name="agrave" unicode="&#xe0;" horiz-adv-x="595" 
d="M455 80q-60 -88 -179 -88q-108 0 -176 75q-66 74 -66 183t66 183q68 75 181 75t174 -89v81h75v-500h-75v80zM286 60q81 0 128 56q45 53 45 134t-45 134q-47 56 -128 56q-80 0 -130 -56q-47 -53 -47 -134t47 -134q50 -56 130 -56zM332 570h-61l-107 105h107z" />
    <glyph glyph-name="aacute" unicode="&#xe1;" horiz-adv-x="595" 
d="M455 80q-60 -88 -179 -88q-108 0 -176 75q-66 74 -66 183t66 183q68 75 181 75t174 -89v81h75v-500h-75v80zM286 60q81 0 128 56q45 53 45 134t-45 134q-47 56 -128 56q-80 0 -130 -56q-47 -53 -47 -134t47 -134q50 -56 130 -56zM279 675h107l-107 -105h-61z" />
    <glyph glyph-name="acircumflex" unicode="&#xe2;" horiz-adv-x="595" 
d="M455 80q-60 -88 -179 -88q-108 0 -176 75q-66 74 -66 183t66 183q68 75 181 75t174 -89v81h75v-500h-75v80zM286 60q81 0 128 56q45 53 45 134t-45 134q-47 56 -128 56q-80 0 -130 -56q-47 -53 -47 -134t47 -134q50 -56 130 -56zM336 570l-59 54l-59 -54h-82l98 105h87
l97 -105h-82z" />
    <glyph glyph-name="atilde" unicode="&#xe3;" horiz-adv-x="595" 
d="M455 80q-60 -88 -179 -88q-108 0 -176 75q-66 74 -66 183t66 183q68 75 181 75t174 -89v81h75v-500h-75v80zM286 60q81 0 128 56q45 53 45 134t-45 134q-47 56 -128 56q-80 0 -130 -56q-47 -53 -47 -134t47 -134q50 -56 130 -56zM216 609q-35 0 -50 -39h-31q7 66 55 90
q18 8 42 8q33 0 61 -14t42.5 -20.5t34 -6.5t31 13.5t15.5 26.5h32q-16 -98 -96 -98q-36 0 -63 13.5t-41.5 20t-31.5 6.5z" />
    <glyph glyph-name="adieresis" unicode="&#xe4;" horiz-adv-x="595" 
d="M455 80q-60 -88 -179 -88q-108 0 -176 75q-66 74 -66 183t66 183q68 75 181 75t174 -89v81h75v-500h-75v80zM286 60q81 0 128 56q45 53 45 134t-45 134q-47 56 -128 56q-80 0 -130 -56q-47 -53 -47 -134t47 -134q50 -56 130 -56zM246 662v-83h-89v83h89zM403 662v-83h-89
v83h89z" />
    <glyph glyph-name="aring" unicode="&#xe5;" horiz-adv-x="595" 
d="M455 80q-60 -88 -179 -88q-108 0 -176 75q-66 74 -66 183t66 183q68 75 181 75t174 -89v81h75v-500h-75v80zM286 60q81 0 128 56q45 53 45 134t-45 134q-47 56 -128 56q-80 0 -130 -56q-47 -53 -47 -134t47 -134q50 -56 130 -56zM279 556q-37 0 -63 26t-26 63.5t26 63.5
t63 26t64 -25.5t27 -64t-27 -64t-64 -25.5zM249 614q13 -13 31 -13t31 13t13 31.5t-13 31.5t-31 13t-31 -13t-13 -31.5t13 -31.5z" />
    <glyph glyph-name="ae" unicode="&#xe6;" horiz-adv-x="977" 
d="M530 428q58 80 172 80q112 0 182 -75q66 -72 66 -183v-30h-419q9 -71 53 -114q49 -46 124 -46q56 0 92.5 27t56.5 70h80q-24 -73 -85.5 -119t-149.5 -46q-114 0 -172 79v-71h-75v80q-60 -88 -179 -88q-108 0 -176 75q-66 74 -66 183t66 183q68 75 181 75t174 -89v81h75
v-72zM286 60q81 0 128 56q45 53 45 134t-45 134q-47 56 -128 56q-80 0 -130 -56q-47 -53 -47 -134t47 -134q50 -56 130 -56zM872 290q-10 66 -54 107q-47 43 -116 43t-116 -43q-44 -41 -54 -107h340z" />
    <glyph glyph-name="ccedilla" unicode="&#xe7;" horiz-adv-x="544" 
d="M273 -54q10 2 22 2q38 0 65 -20.5t27 -56.5q0 -59 -71 -76q-20 -5 -50.5 -5t-61 12.5t-49.5 28.5l19 33q44 -30 85 -30q55 0 55 36q0 15 -16 24t-35.5 9t-36.5 -5l-21 17l50 79q-101 8 -161 82q-60 72 -60 174q0 110 67 183q69 75 179 75q88 0 152 -46q61 -45 84 -119
h-81q-17 43 -54 70t-85 27t-81.5 -15t-56.5 -41q-49 -54 -49 -134t49 -134q50 -56 132 -56q54 0 91 27t54 70h81q-21 -69 -78 -114t-139 -50z" />
    <glyph glyph-name="egrave" unicode="&#xe8;" horiz-adv-x="557" 
d="M288 60q101 0 145 84h82q-26 -68 -82.5 -110t-145.5 -42q-113 0 -184 75q-69 73 -69 183q0 111 66 183q70 75 182 75t182 -75q66 -72 66 -183v-30h-419q8 -69 55 -114q48 -46 122 -46zM282 440q-69 0 -116 -43q-44 -41 -54 -107h340q-10 66 -54 107q-47 43 -116 43z
M346 570h-61l-107 105h107z" />
    <glyph glyph-name="eacute" unicode="&#xe9;" horiz-adv-x="557" 
d="M288 60q101 0 145 84h82q-26 -68 -82.5 -110t-145.5 -42q-113 0 -184 75q-69 73 -69 183q0 111 66 183q70 75 182 75t182 -75q66 -72 66 -183v-30h-419q8 -69 55 -114q48 -46 122 -46zM282 440q-69 0 -116 -43q-44 -41 -54 -107h340q-10 66 -54 107q-47 43 -116 43z
M272 675h107l-107 -105h-61z" />
    <glyph glyph-name="ecircumflex" unicode="&#xea;" horiz-adv-x="557" 
d="M288 60q101 0 145 84h82q-26 -68 -82.5 -110t-145.5 -42q-113 0 -184 75q-69 73 -69 183q0 111 66 183q70 75 182 75t182 -75q66 -72 66 -183v-30h-419q8 -69 55 -114q48 -46 122 -46zM282 440q-69 0 -116 -43q-44 -41 -54 -107h340q-10 66 -54 107q-47 43 -116 43z
M341 570l-59 54l-59 -54h-82l98 105h87l97 -105h-82z" />
    <glyph glyph-name="edieresis" unicode="&#xeb;" horiz-adv-x="557" 
d="M288 60q101 0 145 84h82q-26 -68 -82.5 -110t-145.5 -42q-113 0 -184 75q-69 73 -69 183q0 111 66 183q70 75 182 75t182 -75q66 -72 66 -183v-30h-419q8 -69 55 -114q48 -46 122 -46zM282 440q-69 0 -116 -43q-44 -41 -54 -107h340q-10 66 -54 107q-47 43 -116 43z
M248 662v-83h-89v83h89zM405 662v-83h-89v83h89z" />
    <glyph glyph-name="igrave" unicode="&#xec;" horiz-adv-x="205" 
d="M65 500h75v-500h-75v500zM172 570h-61l-107 105h107z" />
    <glyph glyph-name="iacute" unicode="&#xed;" horiz-adv-x="205" 
d="M65 500h75v-500h-75v500zM96 675h107l-107 -105h-61z" />
    <glyph glyph-name="icircumflex" unicode="&#xee;" horiz-adv-x="205" 
d="M65 500h75v-500h-75v500zM162 570l-59 54l-59 -54h-82l98 105h87l97 -105h-82z" />
    <glyph glyph-name="idieresis" unicode="&#xef;" horiz-adv-x="205" 
d="M65 500h75v-500h-75v500zM69 662v-83h-89v83h89zM226 662v-83h-89v83h89z" />
    <glyph glyph-name="eth" unicode="&#xf0;" horiz-adv-x="573" 
d="M342 625q91 -73 134 -145q54 -92 54 -211q0 -113 -64 -191q-70 -86 -180 -86q-118 0 -188 78q-64 70 -64 183q0 110 62 185q63 76 167 76q91 0 146 -59q-29 56 -96 103q-18 12 -35 24l-56 -37l-32 38l43 28q-33 19 -64 33l27 71q53 -25 104 -59l75 50l32 -38zM282 59
q80 0 128 59q45 55 45 135q0 79 -49 135q-51 59 -132 59q-77 0 -123 -57q-42 -54 -42 -137q0 -80 45 -135q48 -59 128 -59z" />
    <glyph glyph-name="ntilde" unicode="&#xf1;" horiz-adv-x="566" 
d="M140 500v-78q27 36 66 61t89 25t86 -14t63 -42q62 -61 62 -161v-291h-75v289q0 69 -39 110t-101 41q-63 0 -107 -42q-44 -43 -44 -110v-288h-75v500h75zM212 609q-35 0 -50 -39h-31q7 66 55 90q18 8 42 8q33 0 61 -14t42.5 -20.5t34 -6.5t31 13.5t15.5 26.5h32
q-16 -98 -96 -98q-36 0 -63 13.5t-41.5 20t-31.5 6.5z" />
    <glyph glyph-name="ograve" unicode="&#xf2;" horiz-adv-x="564" 
d="M282 508q112 0 182 -75q66 -72 66 -183t-66 -183q-70 -75 -182 -75t-182 75q-66 72 -66 183t66 183q70 75 182 75zM282 60q81 0 128 56q45 53 45 134t-45 134q-47 56 -128 56t-128 -56q-45 -53 -45 -134t45 -134q47 -56 128 -56zM349 570h-61l-107 105h107z" />
    <glyph glyph-name="oacute" unicode="&#xf3;" horiz-adv-x="564" 
d="M282 508q112 0 182 -75q66 -72 66 -183t-66 -183q-70 -75 -182 -75t-182 75q-66 72 -66 183t66 183q70 75 182 75zM282 60q81 0 128 56q45 53 45 134t-45 134q-47 56 -128 56t-128 -56q-45 -53 -45 -134t45 -134q47 -56 128 -56zM271 675h107l-107 -105h-61z" />
    <glyph glyph-name="ocircumflex" unicode="&#xf4;" horiz-adv-x="564" 
d="M282 508q112 0 182 -75q66 -72 66 -183t-66 -183q-70 -75 -182 -75t-182 75q-66 72 -66 183t66 183q70 75 182 75zM282 60q81 0 128 56q45 53 45 134t-45 134q-47 56 -128 56t-128 -56q-45 -53 -45 -134t45 -134q47 -56 128 -56zM341 570l-59 54l-59 -54h-82l98 105h87
l97 -105h-82z" />
    <glyph glyph-name="otilde" unicode="&#xf5;" horiz-adv-x="564" 
d="M282 508q112 0 182 -75q66 -72 66 -183t-66 -183q-70 -75 -182 -75t-182 75q-66 72 -66 183t66 183q70 75 182 75zM282 60q81 0 128 56q45 53 45 134t-45 134q-47 56 -128 56t-128 -56q-45 -53 -45 -134t45 -134q47 -56 128 -56zM210 609q-35 0 -50 -39h-31q7 66 55 90
q18 8 42 8q33 0 61 -14t42.5 -20.5t34 -6.5t31 13.5t15.5 26.5h32q-16 -98 -96 -98q-36 0 -63 13.5t-41.5 20t-31.5 6.5z" />
    <glyph glyph-name="odieresis" unicode="&#xf6;" horiz-adv-x="564" 
d="M282 508q112 0 182 -75q66 -72 66 -183t-66 -183q-70 -75 -182 -75t-182 75q-66 72 -66 183t66 183q70 75 182 75zM282 60q81 0 128 56q45 53 45 134t-45 134q-47 56 -128 56t-128 -56q-45 -53 -45 -134t45 -134q47 -56 128 -56zM248 662v-83h-89v83h89zM405 662v-83h-89
v83h89z" />
    <glyph glyph-name="divide" unicode="&#xf7;" 
d="M512 269v-69h-474v69h474zM231 110h88v-93h-88v93zM231 452h88v-93h-88v93z" />
    <glyph glyph-name="oslash" unicode="&#xf8;" horiz-adv-x="564" 
d="M282 508q92 0 157 -52l54 60l26 -23l-54 -62q65 -71 65 -181q0 -111 -66 -183q-70 -75 -182 -75q-94 0 -156 52l-54 -61l-26 23l54 62q-66 72 -66 182q0 111 66 183q70 75 182 75zM392 402q-44 38 -110 38q-81 0 -128 -56q-45 -53 -45 -134q0 -75 40 -127zM416 376
l-243 -278q44 -38 117 -38t119 54.5t46 132.5t-39 129z" />
    <glyph glyph-name="ugrave" unicode="&#xf9;" horiz-adv-x="566" 
d="M426 0v78q-27 -36 -66 -61t-89 -25t-86 14t-63 42q-62 61 -62 161v291h75v-289q0 -69 39 -110t101 -41q63 0 107 42q44 43 44 110v288h75v-500h-75zM343 570h-61l-107 105h107z" />
    <glyph glyph-name="uacute" unicode="&#xfa;" horiz-adv-x="566" 
d="M426 0v78q-27 -36 -66 -61t-89 -25t-86 14t-63 42q-62 61 -62 161v291h75v-289q0 -69 39 -110t101 -41q63 0 107 42q44 43 44 110v288h75v-500h-75zM276 675h107l-107 -105h-61z" />
    <glyph glyph-name="ucircumflex" unicode="&#xfb;" horiz-adv-x="566" 
d="M426 0v78q-27 -36 -66 -61t-89 -25t-86 14t-63 42q-62 61 -62 161v291h75v-289q0 -69 39 -110t101 -41q63 0 107 42q44 43 44 110v288h75v-500h-75zM339 570l-59 54l-59 -54h-82l98 105h87l97 -105h-82z" />
    <glyph glyph-name="udieresis" unicode="&#xfc;" horiz-adv-x="566" 
d="M426 0v78q-27 -36 -66 -61t-89 -25t-86 14t-63 42q-62 61 -62 161v291h75v-289q0 -69 39 -110t101 -41q63 0 107 42q44 43 44 110v288h75v-500h-75zM246 662v-83h-89v83h89zM403 662v-83h-89v83h89z" />
    <glyph glyph-name="yacute" unicode="&#xfd;" horiz-adv-x="497" 
d="M198 -198h-81l91 205l-204 493h83l161 -410l164 410h82zM250 675h107l-107 -105h-61z" />
    <glyph glyph-name="thorn" unicode="&#xfe;" horiz-adv-x="594" 
d="M140 419q61 89 179 89q108 0 175 -75q67 -74 67 -183t-67 -183q-67 -75 -180.5 -75t-173.5 88v-278h-75v898h75v-281zM309 60q80 0 130 56q47 53 47 134t-47 134q-50 56 -130 56q-81 0 -128 -56q-45 -53 -45 -134t45 -134q47 -56 128 -56z" />
    <glyph glyph-name="ydieresis" unicode="&#xff;" horiz-adv-x="497" 
d="M198 -198h-81l91 205l-204 493h83l161 -410l164 410h82zM215 662v-83h-89v83h89zM372 662v-83h-89v83h89z" />
    <glyph glyph-name="dotlessi" unicode="&#x131;" horiz-adv-x="205" 
d="M65 500h75v-500h-75v500z" />
    <glyph glyph-name="OE" unicode="&#x152;" horiz-adv-x="1144" 
d="M612 553v109h492v-72h-417v-223h373v-73h-373v-222h417v-72h-492v108q-88 -116 -247 -116q-147 0 -239 99q-87 95 -87 240t87 240q92 99 244.5 99t241.5 -117zM365 65q118 0 186 77q65 73 65 189t-65 189q-68 77 -186 77t-186 -77q-65 -73 -65 -189t65 -189
q68 -77 186 -77z" />
    <glyph glyph-name="oe" unicode="&#x153;" horiz-adv-x="972" 
d="M570 474.5q52 33.5 118 33.5t112 -20t78 -55q67 -72 67 -183v-30h-419q9 -71 54 -114q48 -46 123 -46q56 0 92.5 27t56.5 70h80q-24 -73 -85.5 -119t-142.5 -46q-151 0 -215 121q-28 -55 -80 -88t-118 -33t-112 20t-79 55q-66 72 -66 183t66 183q70 75 182 75
q75 0 127 -33.5t80 -88.5q29 55 81 88.5zM282 60q81 0 128 56q45 53 45 134t-45 134q-47 56 -128 56t-128 -56q-45 -53 -45 -134t45 -134q47 -56 128 -56zM867 290q-10 66 -55 107q-46 43 -115 43t-115 -43q-45 -41 -55 -107h340z" />
    <glyph glyph-name="Ydieresis" unicode="&#x178;" horiz-adv-x="629" 
d="M352 0h-75v262l-278 400h91l224 -322l224 322h91l-277 -400v-262zM280 803v-83h-89v83h89zM437 803v-83h-89v83h89z" />
    <glyph glyph-name="longs" unicode="&#x17f;" horiz-adv-x="239" 
d="M280 637q-53 0 -79.5 -23.5t-26.5 -75.5v-538h-75v434h-86v66h86v44q0 82 49 123t136 41h6v-71h-10z" />
    <glyph glyph-name="florin" unicode="&#x192;" horiz-adv-x="332" 
d="M364 708l-12 -71h-10q-52 0 -83 -21t-41 -78l-21 -122h116v-49h-125l-65 -358q-26 -150 -196 -158l11 59q95 7 109 93l66 364h-86v49h95l22 128q16 90 72 127t142 37h6z" />
    <glyph glyph-name="Oslashacute" unicode="&#x1fe;" horiz-adv-x="750" 
d="M375 670q121 0 210 -68l67 78l32 -28l-68 -78q95 -95 95 -243q0 -144 -93 -240q-95 -99 -243 -99q-118 0 -209 69l-68 -78l-31 28l68 77q-96 98 -96 243q0 144 93 240q95 99 243 99zM536 547q-67 50 -161 50q-118 0 -191 -77q-70 -74 -70 -189q0 -114 69 -187zM214 116
q68 -51 161 -51q118 0 191 77q70 74 70 189q0 114 -68 188zM363 820h107l-107 -105h-61z" />
    <glyph glyph-name="oslashacute" unicode="&#x1ff;" horiz-adv-x="564" 
d="M282 508q92 0 157 -52l54 60l26 -23l-54 -62q65 -71 65 -181q0 -111 -66 -183q-70 -75 -182 -75q-94 0 -156 52l-54 -61l-26 23l54 62q-66 72 -66 182q0 111 66 183q70 75 182 75zM392 402q-44 38 -110 38q-81 0 -128 -56q-45 -53 -45 -134q0 -75 40 -127zM416 376
l-243 -278q44 -38 117 -38t119 54.5t46 132.5t-39 129zM271 675h107l-107 -105h-61z" />
    <glyph glyph-name="circumflex" unicode="&#x2c6;" horiz-adv-x="384" 
d="M249 570l-59 54l-59 -54h-82l98 105h87l97 -105h-82z" />
    <glyph glyph-name="caron" unicode="&#x2c7;" horiz-adv-x="381" 
d="M331 675l-97 -105h-87l-98 105h82l59 -54l59 54h82z" />
    <glyph glyph-name="breve" unicode="&#x2d8;" horiz-adv-x="465" 
d="M338 691q6 -14 6 -31.5t-9.5 -34.5t-25.5 -30q-34 -28 -83 -28q-50 0 -84 28q-35 28 -35 67q0 8 2 15l4 14h18q3 -29 30 -47t64.5 -18t64.5 18t30 47h18z" />
    <glyph glyph-name="dotaccent" unicode="&#x2d9;" horiz-adv-x="235" 
d="M163 662v-83h-89v83h89z" />
    <glyph glyph-name="ring" unicode="&#x2da;" horiz-adv-x="323" 
d="M163 556q-37 0 -63 26t-26 63.5t26 63.5t63 26t64 -25.5t27 -64t-27 -64t-64 -25.5zM133 614q13 -13 31 -13t31 13t13 31.5t-13 31.5t-31 13t-31 -13t-13 -31.5t13 -31.5z" />
    <glyph glyph-name="ogonek" unicode="&#x2db;" horiz-adv-x="309" 
d="M239 -168q-45 -25 -85 -25t-68.5 18t-28.5 49.5t11.5 50.5t29.5 33q25 22 75 44h56l-27 -15q-68 -37 -68 -77q0 -25 18.5 -37t44.5 -12t42 10v-39z" />
    <glyph glyph-name="tilde" unicode="&#x2dc;" horiz-adv-x="463" 
d="M152 609q-35 0 -50 -39h-31q7 66 55 90q18 8 42 8q33 0 61 -14t42.5 -20.5t34 -6.5t31 13.5t15.5 26.5h32q-16 -98 -96 -98q-36 0 -63 13.5t-41.5 20t-31.5 6.5z" />
    <glyph glyph-name="hungarumlaut" unicode="&#x2dd;" horiz-adv-x="523" 
d="M147 675h107l-107 -105h-61zM303 675h107l-107 -105h-61z" />
    <glyph glyph-name="Omega" unicode="&#x3a9;" horiz-adv-x="678" 
d="M115 343q0 -188 165 -284v-59h-226v59h143q-103 74 -139 199q-13 44 -13 101.5t21 115t60 101.5q85 94 213 94t213 -94q81 -91 81 -223q0 -94 -47 -177q-40 -71 -106 -117h144v-59h-226v59q165 96 165 284q0 102 -59 176q-63 80 -165 80q-103 0 -167 -80
q-57 -73 -57 -176z" />
    <glyph glyph-name="pi" unicode="&#x3c0;" horiz-adv-x="578" 
d="M460 119q0 -72 75 -72v-54q-70 0 -105 26q-43 32 -43 110v295h-197v-424h-74v424h-97v66h538v-66h-97v-305z" />
    <glyph glyph-name="endash" unicode="&#x2013;" horiz-adv-x="610" 
d="M55 329h500v-67h-500v67z" />
    <glyph glyph-name="emdash" unicode="&#x2014;" horiz-adv-x="1146" 
d="M73 329h1000v-67h-1000v67z" />
    <glyph glyph-name="quoteleft" unicode="&#x2018;" horiz-adv-x="218" 
d="M134 475h-98l88 213h68z" />
    <glyph glyph-name="quoteright" unicode="&#x2019;" horiz-adv-x="211" 
d="M98 688h98l-88 -213h-68z" />
    <glyph glyph-name="quotesinglbase" unicode="&#x201a;" horiz-adv-x="220" 
d="M69 80h98l-88 -213h-68z" />
    <glyph glyph-name="quotedblleft" unicode="&#x201c;" horiz-adv-x="368" 
d="M134 475h-98l88 213h68zM284 475h-98l88 213h68z" />
    <glyph glyph-name="quotedblright" unicode="&#x201d;" horiz-adv-x="361" 
d="M248 688h98l-88 -213h-68zM98 688h98l-88 -213h-68z" />
    <glyph glyph-name="quotedblbase" unicode="&#x201e;" horiz-adv-x="370" 
d="M219 80h98l-88 -213h-68zM69 80h98l-88 -213h-68z" />
    <glyph glyph-name="dagger" unicode="&#x2020;" horiz-adv-x="435" 
d="M397 439h-149v-570h-61v570h-149v61h149v162h61v-162h149v-61z" />
    <glyph glyph-name="daggerdbl" unicode="&#x2021;" horiz-adv-x="455" 
d="M407 31h-149v-162h-61v162h-149v61h149v347h-149v61h149v162h61v-162h149v-61h-149v-347h149v-61z" />
    <glyph glyph-name="bullet" unicode="&#x2022;" horiz-adv-x="340" 
d="M36 320q0 56 39 95t95 39t95 -39t39 -95t-39 -95t-95 -39t-95 39t-39 95z" />
    <glyph glyph-name="ellipsis" unicode="&#x2026;" horiz-adv-x="787" 
d="M150 102v-102h-97v102h97zM442 102v-102h-97v102h97zM734 102v-102h-97v102h97z" />
    <glyph glyph-name="perthousand" unicode="&#x2030;" horiz-adv-x="1193" 
d="M343 470q0 -86 -40.5 -134t-110 -48t-109.5 48t-40 141.5t40 141.5t113 47t110 -55.5t37 -140.5zM193 345q67 3 83 86q5 23 5 46q0 66 -23.5 99t-65 33t-65 -33t-23.5 -99t23.5 -99t65.5 -33zM804 174q0 -86 -40.5 -134t-110 -48t-109.5 48t-40 141.5t40 141.5t113 47
t110 -55.5t37 -140.5zM654 49q67 3 84 86q4 23 4 46q0 66 -23.5 99t-65 33t-65 -33t-23.5 -99t23.5 -99t65.5 -33zM684 670l-459 -682h-63l459 682h63zM1152 174q0 -86 -40.5 -134t-110 -48t-109.5 48t-40 141.5t40 141.5t113 47t110 -55.5t37 -140.5zM1002 49q67 3 84 86
q4 23 4 46q0 66 -23.5 99t-65 33t-65 -33t-23.5 -99t23.5 -99t65.5 -33z" />
    <glyph glyph-name="guilsinglleft" unicode="&#x2039;" horiz-adv-x="303" 
d="M121 259l137 -202h-89l-130 202l130 202h89z" />
    <glyph glyph-name="guilsinglright" unicode="&#x203a;" horiz-adv-x="303" 
d="M45 461h89l130 -202l-130 -202h-89l137 202z" />
    <glyph glyph-name="fraction" unicode="&#x2044;" horiz-adv-x="468" 
d="M-8 -14l420 688h64l-420 -688h-64z" />
    <glyph glyph-name="Euro" unicode="&#x20ac;" horiz-adv-x="613" 
d="M415 65q78 0 137 43l14 -72q-67 -44 -162 -44q-121 0 -192 76q-64 69 -81 184h-89l22 54h62q-1 7 -1 13v20t2 36h-85l22 54h70q34 169 164 222q46 19 100 19q92 0 157 -37l-27 -68q-42 32 -120 32q-127 0 -176 -102q-15 -31 -22 -66h264l-21 -54h-251q-2 -22 -2 -36v-20
q0 -6 1 -13h225l-21 -54h-199q34 -187 209 -187z" />
    <glyph glyph-name="trademark" unicode="&#x2122;" horiz-adv-x="815" 
d="M62 615v47h286v-47h-119v-302h-49v302h-118zM689 662h51v-349h-49v269l-116 -149l-118 149v-269h-49v349h52l115 -153z" />
    <glyph glyph-name="partialdiff" unicode="&#x2202;" horiz-adv-x="603" 
d="M308 658q-70 0 -124 -54l-41 34q75 82 184 84q111 2 170 -81q53 -75 53 -201q0 -98 -30 -196q-55 -175 -182 -232q-46 -20 -95.5 -20t-85 13t-61.5 37q-55 49 -55 127q0 106 83 181q79 72 184 72q61 0 98 -18t66 -44q6 30 6 77t-8 89t-28 71q-41 61 -134 61zM134 250
q-16 -31 -16 -76t36.5 -77t86 -32t84 18.5t61.5 50.5q54 64 73 163q-27 23 -63.5 38.5t-83 15.5t-79 -12.5t-58 -35t-41.5 -53.5z" />
    <glyph glyph-name="Delta" unicode="&#x2206;" horiz-adv-x="579" 
d="M314 662l231 -662h-511l234 662h46zM107 71h332l-161 488z" />
    <glyph glyph-name="product" unicode="&#x220f;" horiz-adv-x="671" 
d="M77 -180v928h517v-928h-73v862h-370v-862h-74z" />
    <glyph glyph-name="summation" unicode="&#x2211;" horiz-adv-x="653" 
d="M606 675h-463l335 -391l-335 -391h463v-73h-564v67l333 397l-333 398v66h564v-73z" />
    <glyph glyph-name="minus" unicode="&#x2212;" 
d="M500 203h-450v65h450v-65z" />
    <glyph glyph-name="radical" unicode="&#x221a;" horiz-adv-x="672" 
d="M397 -163h-87l-168 372l-117 -45l-22 56l188 74l167 -376l255 822l56 -17z" />
    <glyph glyph-name="infinity" unicode="&#x221e;" horiz-adv-x="751" 
d="M198 414q92 0 178 -116q55 80 126 106q25 10 58 10t62 -15t48 -39q35 -45 35 -105q0 -62 -35 -106q-43 -53 -117 -53q-72 0 -141 72q-20 21 -36 44q-86 -116 -178 -116q-74 0 -116 53q-36 44 -36 106q0 60 36 105q42 54 116 54zM161 164q18 -10 39.5 -10t41 8.5
t38.5 22.5q37 27 67 70q-47 67 -105 93q-20 8 -41.5 8t-39.5 -9.5t-30 -24.5q-23 -27 -23 -67q0 -64 53 -91zM550 154q22 0 40 9.5t30 24.5q23 27 23 67q0 64 -53 91q-18 10 -39.5 10t-41.5 -8.5t-39 -22.5q-41 -31 -66 -70q25 -39 66 -70t80 -31z" />
    <glyph glyph-name="integral" unicode="&#x222b;" horiz-adv-x="308" 
d="M121 637q0 129 103 141q30 3 66 3v-54q-60 0 -81.5 -19.5t-21.5 -71.5v-670q0 -129 -103 -140q-30 -4 -66 -4v54q60 0 81.5 19.5t21.5 71.5v670z" />
    <glyph glyph-name="approxequal" unicode="&#x2248;" 
d="M60 119q15 134 112 134q37 0 90 -21t78.5 -30.5t45 -9.5t33.5 9t22 21t11.5 24t5.5 18h32q-10 -57 -24 -81.5t-34 -38.5t-49.5 -14t-59.5 9.5t-59 20.5t-54.5 20.5t-45.5 9.5t-34 -8.5t-22 -20.5t-11.5 -24t-5.5 -18h-31zM61 276q15 134 112 134q37 0 90 -21t78.5 -30.5
t45 -9.5t33.5 9t22 21t11.5 24t5.5 18h32q-10 -57 -24 -81.5t-34 -38.5t-49.5 -14t-59.5 9.5t-59 20.5t-54.5 20.5t-45.5 9.5t-34 -8.5t-22 -20.5t-11.5 -24t-5.5 -18h-31z" />
    <glyph glyph-name="notequal" unicode="&#x2260;" 
d="M343 301l-69 -131h219v-67h-255l-70 -132l-53 28l55 104h-113v67h149l69 131h-218v67h254l70 131l53 -28l-55 -103h114v-67h-150z" />
    <glyph glyph-name="lessequal" unicode="&#x2264;" 
d="M512 434l-395 -138l395 -138v-78l-481 184v63l481 185v-78zM31 32h481v-66h-481v66z" />
    <glyph glyph-name="greaterequal" unicode="&#x2265;" 
d="M37 512l481 -185v-63l-481 -184v78l395 138l-395 138v78zM518 -34h-481v66h481v-66z" />
    <glyph glyph-name="lozenge" unicode="&#x25ca;" horiz-adv-x="618" 
d="M582 331l-234 -389h-78l-234 389l234 389h78zM500 331l-191 317l-191 -317l191 -317z" />
    <glyph glyph-name="f_f" unicode="&#xfb00;" horiz-adv-x="604" 
d="M577 637q-53 0 -79.5 -23.5t-26.5 -75.5v-38h116v-66h-116v-434h-75v434h-222v-434h-75v434h-86v66h86v44q0 82 49 123t136 41h6v-71h-10q-53 0 -79.5 -23.5t-26.5 -75.5v-38h222v44q0 82 49 123t136 41h6v-71h-10z" />
    <glyph glyph-name="fi" unicode="&#xfb01;" horiz-adv-x="496" 
d="M356 434h-182v-434h-75v434h-86v66h86v44q0 82 49 123t136 41h6v-71h-10q-53 0 -79.5 -23.5t-26.5 -75.5v-38h257v-500h-75v434zM434 682v-98h-81v98h81z" />
    <glyph glyph-name="fl" unicode="&#xfb02;" horiz-adv-x="496" 
d="M280 637q-53 0 -79.5 -23.5t-26.5 -75.5v-38h116v-66h-116v-434h-75v434h-86v66h86v44q0 82 49 123t136 41h6v-71h-10zM431 0h-75v700h75v-700z" />
    <glyph glyph-name="f_f_i" unicode="&#xfb03;" horiz-adv-x="793" 
d="M653 434h-182v-434h-75v434h-222v-434h-75v434h-86v66h86v44q0 82 49 123t136 41h6v-71h-10q-53 0 -79.5 -23.5t-26.5 -75.5v-38h222v44q0 82 49 123t136 41h6v-71h-10q-53 0 -79.5 -23.5t-26.5 -75.5v-38h257v-500h-75v434zM731 682v-98h-81v98h81z" />
    <glyph glyph-name="f_f_l" unicode="&#xfb04;" horiz-adv-x="793" 
d="M577 637q-53 0 -79.5 -23.5t-26.5 -75.5v-38h116v-66h-116v-434h-75v434h-222v-434h-75v434h-86v66h86v44q0 82 49 123t136 41h6v-71h-10q-53 0 -79.5 -23.5t-26.5 -75.5v-38h222v44q0 82 49 123t136 41h6v-71h-10zM728 0h-75v700h75v-700z" />
    <glyph glyph-name="uni00A0" horiz-adv-x="213" 
 />
    <glyph glyph-name="f_j" horiz-adv-x="497" 
d="M357 434h-183v-434h-75v434h-86v66h86v44q0 82 49 123t136 41h6v-71h-10q-53 0 -79.5 -23.5t-26.5 -75.5v-38h258v-698h-75v632zM435 682v-98h-81v98h81z" />
    </font>
</defs>
</svg>
